<?xml version="1.0" standalone="no"?>
<!DOCTYPE svg PUBLIC "-//W3C//DTD SVG 1.1//EN" "http://www.w3.org/Graphics/SVG/1.1/DTD/svg11.dtd" >
<svg xmlns="http://www.w3.org/2000/svg">
<metadata>Generated by IcoMoon</metadata>
<defs>
<font id="icomoon" horiz-adv-x="1024">
<font-face units-per-em="1024" ascent="960" descent="-64" />
<missing-glyph horiz-adv-x="1024" />
<glyph unicode="&#x20;" horiz-adv-x="512" d="" />
<glyph unicode="&#xe900;" glyph-name="logo-name" horiz-adv-x="1536" d="M732.025 502.439v-21.838c-39.759-56.152-73.402-81.11-97.871-81.11-12.232 0-24.464 6.242-33.643 21.839-9.174 15.597-12.232 34.313-12.232 59.271 0 18.718 6.116 43.675 15.29 71.752 9.179 28.076 21.411 56.153 36.701 84.229 15.295 28.076 30.585 53.033 48.938 74.87 15.29 21.837 33.643 37.435 45.875 43.674 6.116 3.12 9.174 6.239 12.232 6.239s6.116-3.119 9.179-6.239c0-3.119 3.058-9.358 3.058-18.717 0-28.076-12.237-62.392-33.643-99.827-21.411-40.555-51.996-81.11-91.755-121.664-3.058-9.359-3.058-18.718-3.058-24.956 0-12.479 3.058-21.839 9.174-31.195 6.121-9.36 12.237-12.479 21.411-12.479 6.116 0 9.174 3.119 15.29 6.237 6.121 3.119 12.237 9.36 18.353 15.597 6.116 6.242 18.348 15.597 36.701 34.317zM646.391 555.472c9.174 9.359 18.348 21.837 30.58 34.316 9.179 12.478 18.353 28.076 27.527 40.555 9.174 15.598 15.295 28.077 18.353 40.555 6.116 12.478 6.116 21.837 6.116 24.957s-3.058 6.239-6.116 6.239c0 0-3.058 0-6.116-3.119-12.237-9.359-24.469-28.076-39.764-59.272-15.29-28.076-24.464-56.152-30.58-84.229zM866.593 499.319v-21.837c-18.348-24.958-36.701-43.674-51.991-56.152-15.295-12.479-30.585-18.716-42.822-18.716-15.29 0-27.522 9.356-36.701 24.953-9.174 15.597-12.232 34.318-12.232 56.152 0 6.242 0 15.6 3.058 21.839s3.058 12.478 6.116 18.718c3.058 3.119 6.121 12.478 12.237 21.837 27.522 43.674 51.991 65.511 76.46 65.511 12.232 0 18.348-3.119 18.348-12.478 0-6.239-3.058-15.598-12.232-28.076-6.116-12.478-15.29-21.837-21.411-28.077-18.348-15.598-27.522-28.076-33.643-34.315-6.116-6.239-9.174-12.479-9.174-21.836 0-6.242 3.058-12.479 9.174-18.721 6.121-6.237 12.237-6.237 21.411-6.237s18.353 3.119 30.585 9.36c12.232 0 27.527 12.474 42.817 28.074zM848.244 630.342c-6.121 0-9.179 3.12-15.295 6.239-3.058 3.119-6.116 9.359-6.116 15.598 0 9.359 3.058 18.718 12.232 28.077 9.179 9.359 15.295 15.598 24.469 15.598 6.116 0 9.174-3.119 15.29-6.239 3.058-3.119 6.121-9.358 6.121-15.598 0-9.359-3.063-18.718-12.237-28.076-6.116-9.359-15.29-15.598-24.464-15.598zM863.535 489.961v6.239c48.938 53.033 85.639 90.469 103.987 112.306 3.058 24.957 15.295 37.435 30.585 37.435 3.058 0 9.174 0 12.232-3.119l3.058-6.239c0-3.119 0-6.239 0-9.359s0-9.359 3.058-21.837c3.063-9.358 6.121-18.717 6.121-24.957 3.058-6.239 3.058-15.598 3.058-24.957 0-12.478-3.058-24.957-9.179-37.435-6.116-12.478-15.29-21.837-24.464-34.313-12.237-12.479-24.469-21.839-42.817-34.318 6.116 0 12.232-3.119 15.29-3.119 9.174 0 15.29 3.119 24.469 6.237 9.174 3.119 18.348 9.36 27.522 15.597 9.179 6.242 21.411 15.602 33.643 24.958v-18.716c-24.464-24.958-45.875-43.674-67.281-56.152-18.353-12.479-36.701-18.721-51.996-18.721-18.348 0-33.643 9.36-51.991 24.958-9.179 9.36-15.295 18.721-18.353 28.076 6.116 9.36 3.058 21.839 3.058 37.437zM973.638 533.635l-6.116 43.675c-12.232-12.478-36.701-40.555-76.46-81.11 12.232-3.12 18.353-6.239 24.469-9.357 3.058-3.119 9.174-12.479 18.348-24.958 12.237 6.237 24.469 12.479 30.585 21.839 6.116 9.356 9.174 21.835 9.174 40.553 0 3.119 0 3.119 0 6.239 0 0 0 3.119 0 3.119zM1154.085 652.179h12.232c9.179 18.718 18.353 31.196 27.527 40.555 9.174 6.239 18.353 12.478 27.527 12.478s15.29-3.119 15.29-6.239c0-3.119-3.058-9.359-12.232-18.718s-15.29-18.717-18.353-24.957c6.121 0 12.237 0 18.353-3.119 6.116 0 9.174 0 12.232 0-12.232-21.837-24.464-43.675-42.817-65.511-6.116 0-9.174 0-12.232 0s-6.116 0-12.237 0c-3.058 0-9.174 0-15.29 0-9.174-18.718-18.353-31.196-27.527-46.794-6.116-12.478-12.232-24.957-15.29-37.436-3.058-12.477-6.116-21.837-6.116-31.198 0-12.479 6.116-21.834 15.29-21.834 6.116 0 18.353 3.119 27.527 12.479 12.232 9.356 27.527 18.716 48.933 37.434v-18.718c-51.991-59.271-91.75-87.347-116.219-87.347-9.174 0-15.29 3.119-21.411 9.356-6.116 6.242-9.174 15.602-9.174 28.076 0 6.242 0 15.602 3.058 24.958 3.058 9.36 9.174 24.958 15.295 46.795-3.058-3.119-6.121-6.239-9.179-6.239-3.058-3.119-6.116-3.119-6.116-6.238-3.058-3.123-3.058-3.119-6.116-6.242-3.058-3.119-6.116-3.119-6.116-6.237v21.836c21.406 18.718 45.875 46.794 73.402 90.469-3.058 0-6.116 0-9.174 0s-6.121 0-9.179 0c-12.232 0-21.406 0-24.464-3.119-3.058 0-3.058 0-6.116-3.12-3.063 0-3.063 0-3.063 0s0 0 0 3.12c0 6.239 3.063 15.598 12.237 28.076 6.116 12.478 12.232 18.717 18.348 24.957s12.237 9.359 21.411 9.359c12.232 3.119 24.469 3.119 39.759 3.119zM1337.591 499.319v-21.837c-18.353-24.958-36.701-43.674-51.996-56.152-15.29-12.479-30.58-18.716-42.817-18.716-15.29 0-27.527 9.356-36.701 24.953s-12.232 34.318-12.232 56.152c0 6.242 0 15.6 3.058 21.839s3.058 12.478 6.116 18.718c3.058 3.119 6.116 12.478 12.232 21.837 27.527 43.674 51.996 65.511 76.465 65.511 12.232 0 18.348-3.119 18.348-12.478 0-6.239-3.058-15.598-12.232-28.076-6.116-12.478-15.295-21.837-21.411-28.077-18.348-15.598-27.527-28.076-33.643-34.315s-9.174-12.479-9.174-21.836c0-6.242 3.058-12.479 9.174-18.721 6.116-6.237 12.237-6.237 21.411-6.237s18.348 3.119 30.585 9.36c12.232 0 24.464 12.474 42.817 28.074zM1319.238 630.342c-6.116 0-9.174 3.12-15.29 6.239-3.058 3.119-6.116 9.359-6.116 15.598 0 9.359 3.058 18.718 12.232 28.077s15.29 15.598 24.469 15.598c6.116 0 9.174-3.119 15.29-6.239 3.058-3.119 6.116-9.358 6.116-15.598 0-9.359-3.058-18.718-12.232-28.076s-15.29-15.598-24.469-15.598zM1508.864 496.199v-18.717c-21.406-21.839-36.701-37.437-51.991-46.792-12.237-12.479-24.469-21.839-36.701-28.076-12.237-6.242-21.411-9.36-33.643-9.36-9.174 0-21.411 3.119-30.585 12.479-9.174 9.356-15.29 18.716-21.411 34.313-6.116 12.479-6.116 28.076-6.116 43.674 0 12.48 3.058 24.959 9.174 34.317 6.121 9.359 18.353 24.957 33.643 40.555 18.353 18.718 36.701 37.435 55.054 46.794 67.286 37.435 61.17 34.316 70.344 34.316 6.116 0-6.116-37.436-6.116-43.675s-97.871-74.87-103.987-81.11c-6.116-6.239-12.237-12.478-18.353-15.598-3.058-6.239-6.116-12.477-6.116-18.718 0-12.479 3.058-21.834 12.232-28.076 6.121-6.237 18.353-12.479 27.527-12.479 12.237 0 27.527 6.242 42.817 15.597 21.411 9.36 42.822 24.958 64.228 40.556zM417.006 530.515c-9.175-15.598-12.234-28.077-12.234-40.555 0-15.597 3.059-31.195 9.176-43.674s12.234-21.839 21.409-31.195c9.176-6.242 18.351-12.479 30.586-12.479 18.348 0 42.817 15.597 67.281 46.792 15.295 0 24.469 0 33.643 6.237 9.179 3.123 18.353 12.479 30.585 24.958v18.719c-9.174-6.24-15.29-9.358-15.29-12.477-3.058-3.123-6.116-3.119-9.174-6.242-3.063-3.119-6.121-3.119-9.179-3.119h-3.058l-12.232 6.242c6.116 12.476 12.232 24.954 18.348 40.553 3.058 15.598 6.121 24.957 6.121 34.315s0 15.598-3.063 18.718c-3.058 3.119-9.174 6.239-15.29 9.359 3.058 6.239 6.116 9.358 6.116 12.478 0 6.239-3.058 9.359-9.174 12.479s-12.232 3.119-21.411 3.119c-12.232 0-27.522-3.119-42.817-12.478-15.29-9.359-27.525-18.717-42.817-31.196-9.175-12.479-18.351-24.957-27.526-40.555zM493.466 549.233c12.237 9.359 24.469 15.598 39.759 28.077-9.174-15.598-18.348-31.196-21.406-43.675-6.116-12.478-6.116-24.957-6.116-37.435 0-9.357 3.058-18.718 6.116-28.078-18.353-15.597-33.643-21.834-42.817-21.834-18.352 0-27.527 6.237-27.527 18.716 0 3.119 3.059 12.479 6.117 34.316 3.059 9.359 9.175 15.598 15.292 24.957 9.176 9.358 18.351 18.717 30.583 24.956zM897.178 343.338c-192.68-118.542-474.056-162.22-544.4-102.945-64.227 53.034-45.876 171.576-3.059 255.806 12.234 24.957 42.818 40.555 70.344 37.435 12.234-3.119 24.468-6.239 30.585-6.239l64.229 53.033c-21.411 3.119-110.106-3.119-131.515-6.239 9.176 18.717 18.351 37.435 24.468 49.913 6.117 15.598 15.292 28.076 21.409 43.674s12.234 28.077 18.351 37.435c0 0 3.059 3.12 3.059 9.359 3.059 6.239 6.117 9.359 6.117 15.598s0 12.478 0 18.717c0 6.239-3.059 12.478-6.117 12.478s-6.117 0-9.175-6.239c-3.059-3.119-6.117-12.478-15.293-28.076s-21.409-37.435-33.643-62.392c-12.234-24.957-30.585-56.153-48.935-99.827-21.409-6.239-36.701-9.359-45.876-12.478s-21.409-6.239-36.701-9.359c27.526 40.555 45.877 71.751 55.052 87.349s18.351 34.316 24.468 49.914c6.117 15.598 9.175 31.196 6.117 43.674-3.059 24.957-9.176 37.435-18.351 40.555s-21.409 6.239-39.76 3.119c-24.467-3.119-48.935-9.358-79.519-21.837-27.526-9.359-55.052-21.837-79.52-37.436-24.467-12.478-45.876-28.076-64.227-40.555s-27.526-21.837-33.643-28.076c-3.058-6.239-6.117-15.598-9.175-28.076s-3.058-24.957-3.058-31.196c0-9.359 3.059-12.478 6.117-18.718 3.058-3.119 9.175-6.239 15.292-3.119 3.058 0 9.175 3.119 18.35 9.359l45.877 56.153c0 3.119 9.176 9.358 30.584 21.837 27.526 15.598 48.935 28.077 67.286 37.436s33.643 15.598 45.876 21.837c12.234 6.239 24.468 9.359 30.585 9.359s9.175 0 15.292 0c3.059 0 9.176-3.119 9.176-6.239 3.059-3.119 3.058-6.239 6.117-9.358 0-6.239-6.117-24.957-24.467-56.153-18.351-28.076-42.818-68.631-79.52-121.664l-67.285-18.718c-6.117 0-9.175 3.12-12.234 0-6.117 0-9.176-3.119-15.293-9.359-3.058-6.237-9.175-12.479-9.175-18.716-3.059-6.242-3.059-15.597-3.059-21.839 0-6.237 3.059-9.36 12.234-12.479 6.117-3.119 15.293-3.119 24.468-3.119s15.293 3.119 18.351 3.119c-3.058-6.237-9.175-18.716-15.292-34.313-9.175-15.597-12.234-24.958-15.292-28.076-3.059-6.242-3.059-9.36-3.059-9.36 0-3.119 0-3.119 0-6.237 0-3.123 0-3.123 3.059-6.242 0-3.119 3.059-3.119 3.059-6.237 3.059-3.123 9.175-6.242 15.292-6.242 3.059 0 6.117 3.119 9.176 6.242 3.058 3.119 6.117 9.356 9.175 21.834 6.117 9.36 9.176 21.839 18.351 37.437 3.059 6.237 6.117 12.479 9.176 21.839 6.117 12.474 21.409 28.076 33.643 34.313 39.76 21.839 67.285 31.196 97.87 43.675-3.059-3.119-12.234-18.717-18.351-31.196 0 0 0 0 0-3.119-6.117-18.721-21.409-68.631-27.526-87.352-21.409-102.945-3.059-240.207 229.381-246.444 183.505-6.242 391.48 87.347 470.998 127.902 27.527 15.597 70.344 12.479 70.344 62.39 0 43.674-55.049 71.754-146.804 12.479z" />
<glyph unicode="&#xe901;" glyph-name="food" horiz-adv-x="1210" d="M794.1 460.704l45.562 45.562c17.585-11.146 37.708-16.716 57.834-16.716 27.657 0 55.324 10.532 76.384 31.589 20.402 20.402 31.642 47.529 31.642 76.387 0 28.855-11.239 55.981-31.638 76.386-17.712 17.715-40.296 28.432-64.438 31.041-2.616 24.135-13.334 46.725-31.043 64.434-42.114 42.121-110.648 42.121-152.768 0-36.383-36.378-41.339-92.465-14.87-134.215l-174.474-174.468h257.809zM981.886 134.941h-7.261l-54.551 200.015c-12.003 44.004-57.133 78.476-102.748 78.476h-430.393c-45.615 0-90.747-34.472-102.75-78.482l-54.548-200.009h-7.263c-13.055 0-23.636-10.581-23.636-23.636 0-13.051 10.581-23.636 23.636-23.636h759.514c13.058 0 23.636 10.584 23.636 23.636 0 13.054-10.578 23.636-23.636 23.636zM728.713 226.915h-253.173c-13.051 0-23.636 10.584-23.636 23.636 0 13.054 10.584 23.636 23.636 23.636h253.173c13.054 0 23.636-10.581 23.636-23.636 0-13.051-10.581-23.636-23.636-23.636z" />
<glyph unicode="&#xe902;" glyph-name="hand" d="M763.206 298.685l-149.585 183.926c-4.205 3.292-8.204 7.953-14.435 12.006-1.418 1.015-2.482 1.722-3.901 2.585-5.064 3.494-11.044 6.786-16.766 9.067-18.438 7.547-34.8 9.979-55.265 10.889-29.684 1.114-51.11-10.889-70.51-25.882-3.295-2.585-6.535-5.623-9.576-8.664-7.041-7.041-9.573-10.383-15.549-16.766-1.167-1.114-1.167-1.57-2.178-2.585l-162.906-205.911c-1.975-4.205-14.842-27.201-14.842-43.259 0-24.871 1.165-36.572 10.688-58.809 2.583-6.231 6.484-12.511 10.131-17.883 6.94-9.976 8.358-9.824 12.663-15.348 3.748-4.813 9.574-9.117 14.639-12.865 3.901-3.041 8.358-5.927 12.714-8.257 0.658-0.254 1.368-0.711 2.078-1.114 7.090-3.547 15.093-7.041 23.301-8.36l25.327-2.734h7.903c26.745 1.114 68.332 13.424 91.986 19.906 6.181 1.775 12.816 3.193 19.453 4.813l43.005 5.319c21.122 1.266 60.382-7.242 81.759-13.424 24.263-7.242 53.44-15.348 78.563-16.614h13.172c24.517 1.266 47.362 10.131 65.8 25.377 23.859 19.552 38.853 43.464 43.411 74.92 6.128 42.449-10.386 68.993-35.458 102.372-1.977 2.634-3.596 4.813-5.623 7.295zM845.216 557.376c-36.523 15.754-86.264-30.847-105.211-74.563-18.894-43.765-4.608-91.989 31.964-107.843 36.523-15.804 81.402 6.889 100.296 50.604 18.944 43.765 9.474 115.948-27.049 131.801zM625.475 545.32c48.175-10.28 97.156 28.166 109.466 85.758 12.31 57.646-16.766 142.898-64.887 153.18-48.122 10.232-97.057-58.303-109.314-115.948-12.359-57.644 16.614-112.757 64.735-122.99zM411.915 542.332c52.224 4.155 90.571 58.253 85.557 120.812-4.965 62.609-60.432 140.769-112.758 136.616-52.224-4.204-81.301-89.051-76.337-151.608 4.915-62.61 51.314-109.971 103.538-105.82zM304.021 489.45c-13.525 53.54-73.196 113.112-117.873 101.814-44.677-11.345-57.493-89.203-43.968-142.693 13.575-53.543 60.735-87.785 105.463-76.49 44.677 11.348 69.953 63.876 56.379 117.369z" />
<glyph unicode="&#xe903;" glyph-name="shop-car" horiz-adv-x="1210" d="M398.106 305.531c3.103-27.927 6.206-52.752 9.309-80.679 6.206 0 12.412 0 18.618 0 145.842 0 291.685 0 440.63 0 3.103 0 9.309 0 12.412 0 18.618 0 27.927-12.412 27.927-27.927s-12.412-27.927-27.927-27.927c-18.618 0-40.339 0-58.958 0 12.412-31.030 6.206-58.958-24.824-77.576-18.618-12.412-40.339-9.309-58.958 3.103-24.824 18.618-27.927 43.442-15.515 71.37-58.958 0-117.915 0-176.873 0 9.309-31.030 6.206-58.958-24.824-74.473-21.721-12.412-43.442-9.309-58.958 6.206-21.721 18.618-24.824 43.442-15.515 71.37-18.618 0-37.236 0-55.855 0-21.721 0-31.030 9.309-34.133 31.030-15.515 152.048-31.030 307.2-46.545 459.249-3.103 31.030-6.206 58.958-6.206 89.988-12.412 0-27.927 0-40.339 0-6.206 0-15.515 0-21.721 0-15.515 3.103-24.824 12.412-24.824 27.927 0 12.412 9.309 24.824 24.824 27.927 31.030 0 58.958 0 89.987 0 15.515 0 21.721-12.412 24.824-24.824 3.103-40.339 9.309-80.679 12.412-121.018 0-12.413 6.206-18.619 18.618-18.619 192.388 0 384.776 0 580.267 0 6.206 0 12.412 0 21.721 0-9.309-49.648-21.721-96.194-31.030-142.739-12.412-58.958-24.824-117.915-37.236-176.873-3.103-12.412-6.206-15.515-18.618-15.515-161.358 0-319.612 0-480.97 0-9.309 0-15.515 0-21.721 0z" />
<glyph unicode="&#xe904;" glyph-name="checkbox-check" horiz-adv-x="993" d="M879.228 949.407h-769.766c-60.028 0-109.462-49.434-109.462-109.462v-769.766c0-60.028 49.434-109.462 109.462-109.462h769.766c60.028 0 109.462 49.434 109.462 109.462v769.766c0 60.028-49.434 109.462-109.462 109.462v0zM833.324 610.428l-399.007-399.007c-14.124-14.124-28.248-17.655-42.372-17.655s-31.779 3.531-42.372 17.655l-197.738 197.738c-24.717 24.717-24.717 63.559 0 88.276s63.559 24.717 88.276 0l155.366-155.366 353.103 353.103c24.717 24.717 63.559 24.717 88.276 0 21.186-21.186 21.186-60.028-3.531-84.745v0z" />
<glyph unicode="&#xe905;" glyph-name="radio-check" d="M512-64c-281.6 0-512 230.4-512 512s230.4 512 512 512 512-230.4 512-512-230.4-512-512-512zM512 874.667c-234.667 0-426.667-192-426.667-426.667s192-426.667 426.667-426.667 426.667 192 426.667 426.667-192 426.667-426.667 426.667zM785.067 448c0-150.811-122.256-273.067-273.067-273.067s-273.067 122.256-273.067 273.067c0 150.811 122.256 273.067 273.067 273.067s273.067-122.256 273.067-273.067z" />
<glyph unicode="&#xe906;" glyph-name="checkbox-default" horiz-adv-x="993" d="M879.228 949.407c60.028 0 109.462-49.434 109.462-109.462v-769.766c0-60.028-49.434-109.462-109.462-109.462h-769.766c-60.028 0-109.462 49.434-109.462 109.462v769.766c0 60.028 49.434 109.462 109.462 109.462h769.766zM98.869 59.586h790.952v790.952h-790.952v-790.952z" />
<glyph unicode="&#xe907;" glyph-name="rario-default" d="M512-64c-281.6 0-512 230.4-512 512s230.4 512 512 512 512-230.4 512-512-230.4-512-512-512zM512 874.667c-234.667 0-426.667-192-426.667-426.667s192-426.667 426.667-426.667 426.667 192 426.667 426.667-192 426.667-426.667 426.667z" />
<glyph unicode="&#xe908;" glyph-name="arrow-down" horiz-adv-x="1056" d="M210.005 518.4c-25.6 25.6-25.6 57.6 0 83.2s57.6 25.6 83.2 0l249.598-249.6 246.4 246.4c25.6 25.6 57.6 25.6 83.2 0s25.6-57.6 0-83.2l-291.2-291.2c-9.6-9.6-25.6-16-41.6-16s-32 6.4-41.6 16l-287.998 294.4z" />
<glyph unicode="&#xe909;" glyph-name="arrow-next" horiz-adv-x="1056" d="M731.603 492.8c9.6-9.6 16-25.6 16-41.6s-6.4-32-16-41.6l-291.2-291.2c-25.6-25.6-57.6-25.6-83.2 0s-25.6 57.6 0 83.2l246.4 246.4-249.6 249.6c-25.6 25.6-25.6 57.6 0 83.2s57.6 25.6 83.2 0l294.4-288z" />
<glyph unicode="&#xe90a;" glyph-name="arrow-prev" horiz-adv-x="1056" d="M645.203 780.8c25.6 25.6 57.6 25.6 83.2 0s25.6-57.6 0-83.2l-246.4-249.6 246.4-246.4c25.6-25.6 25.6-57.6 0-83.2s-57.6-25.6-83.2 0l-291.2 291.2c-9.6 9.6-16 25.6-16 41.6s6.4 32 16 41.6l291.2 288z" />
<glyph unicode="&#xe90b;" glyph-name="arrow-up" horiz-adv-x="1056" d="M210.005 377.6c-25.6-25.6-25.6-57.6 0-83.2s57.6-25.6 83.2 0l249.598 249.6 246.4-246.4c25.6-25.6 57.6-25.6 83.2 0s25.6 57.6 0 83.2l-291.2 291.201c-6.4 6.4-22.4 12.8-38.4 12.8s-32-6.4-41.6-16l-291.198-291.201z" />
<glyph unicode="&#xe90c;" glyph-name="circle-no" d="M988.849 444.32c0 265.633-215.338 480.97-480.97 480.97s-480.97-215.337-480.97-480.97c0-265.632 215.337-480.97 480.97-480.97 265.632 0 480.97 215.338 480.97 480.97zM720.412 319.553c12.12-12.117 12.12-31.766 0-43.883l-43.883-43.883c-12.117-12.12-31.766-12.12-43.883 0l-131.649 131.649-131.652-131.649c-12.117-12.12-31.766-12.12-43.883 0l-43.883 43.883c-12.118 12.117-12.118 31.766 0 43.883l131.649 131.649-131.649 131.652c-12.118 12.117-12.118 31.763 0 43.883l43.883 43.883c12.117 12.118 31.766 12.118 43.883 0l131.652-131.649 131.649 131.649c12.117 12.118 31.766 12.118 43.883 0l43.883-43.883c12.12-12.117 12.12-31.766 0-43.883l-131.649-131.652 131.649-131.649z" />
<glyph unicode="&#xe90d;" glyph-name="circle-yes" d="M988.849 444.32c0-265.632-215.338-480.97-480.97-480.97s-480.97 215.338-480.97 480.97c0 265.633 215.337 480.97 480.97 480.97 265.632 0 480.97-215.337 480.97-480.97zM452.245 189.651l356.848 356.848c12.117 12.117 12.117 31.766 0 43.883l-43.883 43.883c-12.117 12.117-31.766 12.117-43.883 0l-291.024-291.024-135.872 135.872c-12.117 12.117-31.765 12.117-43.885 0l-43.883-43.883c-12.117-12.117-12.117-31.766 0-43.883l201.698-201.697c12.117-12.117 31.763-12.117 43.883 0v0z" />
<glyph unicode="&#xe90e;" glyph-name="gift" d="M182.061 165.047c0-25.746 20.8-46.545 46.545-46.545h232.728v232.727h-279.273v-186.182zM554.425 118.502h232.727c25.746 0 46.545 20.8 46.545 46.545v186.182h-279.273v-232.727zM833.697 583.956h-61.238c9.021 17.6 14.693 37.091 14.693 58.182 0 70.546-57.456 128-128 128-60.509 0-99.638-30.982-149.817-99.345-50.182 68.363-89.311 99.345-149.821 99.345-70.544 0-127.999-57.454-127.999-128 0-21.091 5.527-40.581 14.691-58.182h-64.145c-25.746 0-46.545-20.8-46.545-46.545v-116.364c0-12.8 10.473-23.273 23.273-23.273h698.182c12.8 0 23.273 10.473 23.273 23.273v116.364c0 25.746-20.8 46.545-46.545 46.545zM359.368 583.956c-32.144 0-58.18 26.038-58.18 58.182 0 32.146 26.036 58.182 58.18 58.182 28.948 0 50.328-4.8 125.238-116.364h-125.238zM659.152 583.956h-125.238c74.764 111.273 95.564 116.364 125.238 116.364 32.144 0 58.182-26.036 58.182-58.182 0-32.144-26.038-58.182-58.182-58.182z" />
<glyph unicode="&#xe90f;" glyph-name="info-circle" d="M507.879 832.199c-214.205 0-387.879-173.737-387.879-387.879 0-214.267 173.674-387.879 387.879-387.879s387.879 173.611 387.879 387.879c0 214.142-173.674 387.879-387.879 387.879zM507.879 660.156c36.278 0 65.688-29.409 65.688-65.69 0-36.278-29.411-65.688-65.688-65.688-36.281 0-65.688 29.411-65.688 65.688 0 36.281 29.407 65.69 65.688 65.69zM595.465 262.892c0-10.364-8.403-18.767-18.77-18.767h-137.635c-10.364 0-18.767 8.403-18.767 18.767v37.537c0 10.364 8.403 18.767 18.767 18.767h18.77v100.101h-18.77c-10.364 0-18.767 8.403-18.767 18.767v37.537c0 10.364 8.403 18.767 18.767 18.767h100.101c10.364 0 18.767-8.403 18.767-18.767v-156.405h18.767c10.367 0 18.77-8.403 18.77-18.767v-37.537z" />
<glyph unicode="&#xe910;" glyph-name="key" d="M880.243 560.683c0-141.386-114.617-256-256-256-16.319 0-32.278 1.545-47.749 4.465l-34.925-39.294c-3.277-3.686-7.295-6.634-11.792-8.654s-9.371-3.063-14.302-3.063h-54.142v-58.182c0-19.279-15.63-34.909-34.909-34.909h-58.182v-58.182c0-19.279-15.63-34.909-34.909-34.909h-162.909c-19.28 0-34.909 15.63-34.909 34.909v113.54c0 9.259 3.678 18.14 10.224 24.685l235.347 235.349c-8.322 25.243-12.843 52.215-12.843 80.244 0 141.385 114.614 255.999 255.997 256 141.802 0.002 256.003-114.198 256.003-256zM624.243 630.502c0-38.558 31.257-69.818 69.818-69.818 38.558 0 69.818 31.26 69.818 69.818 0 38.56-31.26 69.818-69.818 69.818-38.561 0-69.818-31.258-69.818-69.818z" />
<glyph unicode="&#xe911;" glyph-name="print" d="M798.788 541.29v173.864c0 12.864-5.108 25.182-14.196 34.288l-68.577 68.561c-9.092 9.091-21.423 14.197-34.288 14.197h-416.272c-26.773 0-48.485-21.712-48.485-48.485v-242.425c-53.561 0-96.97-43.408-96.97-96.97v-169.695c0-13.396 10.849-24.244 24.242-24.244h72.727v-145.455c0-26.773 21.712-48.485 48.485-48.485h484.849c26.773 0 48.485 21.712 48.485 48.485v145.455h72.726c13.396 0 24.244 10.848 24.244 24.244v169.695c0 53.561-43.408 96.97-96.97 96.97zM701.819 153.411h-387.879v145.455h387.879v-145.455zM701.819 492.805h-387.879v242.425h290.909v-72.727c0-13.395 10.848-24.243 24.241-24.243h72.729v-145.455zM774.544 383.715c-20.074 0-36.361 16.288-36.361 36.364 0 20.089 16.288 36.361 36.361 36.361 20.077 0 36.364-16.272 36.364-36.361 0-20.077-16.288-36.364-36.364-36.364z" />
<glyph unicode="&#xe912;" glyph-name="question" d="M508.562 816.684c-116.1 0-191.299-47.568-250.336-132.402-10.71-15.389-7.408-36.487 7.532-47.816l62.745-47.576c15.090-11.441 36.557-8.766 48.37 6.032 36.436 45.646 63.46 71.926 120.373 71.926 44.749 0 100.098-28.8 100.098-72.19 0-32.805-27.080-49.652-71.264-74.42-51.523-28.889-119.706-64.838-119.706-154.773v-14.237c0-19.279 15.627-34.909 34.909-34.909h105.41c19.282 0 34.909 15.63 34.909 34.909v8.397c0 62.343 182.21 64.94 182.21 233.64 0 127.046-131.786 223.418-255.249 223.418zM493.987 273.47c-55.557 0-100.758-45.199-100.758-100.758 0-55.557 45.202-100.755 100.758-100.755 55.56 0 100.758 45.199 100.758 100.758 0 55.557-45.199 100.755-100.758 100.755z" />
<glyph unicode="&#xe913;" glyph-name="test" d="M805.131 248.922l-186.182 322.591v193.556l34.102 51.615h-290.332l34.102-51.615v-194.477l-186.182-322.591c-45.163-78.345 11.982-176.044 102.307-176.044h388.956c91.248 0 148.393 97.699 103.229 176.966zM697.294 124.494h-377.896c-53.457 0-85.716 57.145-59.909 102.307l116.753 203.745h265.697l114.344-203.745c25.805-45.162-7.376-102.307-58.989-102.307z" />
<glyph unicode="&#xe914;" glyph-name="ticket-alt" d="M244.578 378.495l329.126 329.126 197.477-197.477-329.126-329.126-197.477 197.477zM754.722 691.165c27.266-27.266 71.472-27.266 98.738 0l98.738-98.737c27.266-27.266 27.266-71.472 0-98.738l-493.689-493.689c-27.266-27.266-71.472-27.266-98.738 0l-98.737 98.738c27.266 27.266 27.266 71.472 0 98.738s-71.472 27.266-98.738 0l-98.738 98.735c-27.266 27.266-27.266 71.472 0 98.738l493.69 493.69c27.266 27.266 71.472 27.266 98.735 0l98.738-98.738c-27.266-27.266-27.266-71.472 0-98.738zM598.388 748.762c-13.635 13.633-35.738 13.633-49.369 0l-345.582-345.582c-13.633-13.635-13.633-35.738 0-49.369l213.933-213.932c13.632-13.632 35.734-13.632 49.369 0l345.581 345.581c13.632 13.635 13.632 35.738 0 49.369l-213.932 213.933z" />
<glyph unicode="&#xe915;" glyph-name="user-alt" d="M507.879 406.041c95.095 0 172.252 77.157 172.252 172.252 0 95.098-77.157 172.252-172.252 172.252-95.099 0-172.252-77.154-172.252-172.252 0-95.095 77.154-172.252 172.252-172.252zM660.992 367.765h-65.911c-26.556-12.201-56.1-19.139-87.201-19.139s-60.528 6.938-87.201 19.139h-65.911c-84.571 0-153.113-68.543-153.113-153.113v-19.139c0-31.701 25.718-57.418 57.417-57.418h497.616c31.701 0 57.418 25.718 57.418 57.418v19.139c0 84.57-68.543 153.113-153.113 153.113z" />
<glyph unicode="&#xe916;" glyph-name="clipboard-list" d="M740.606 754.623h-129.294c0 57.050-46.384 103.434-103.433 103.434-57.052 0-103.433-46.384-103.433-103.434h-129.294c-42.828 0-77.576-34.747-77.576-77.576v-568.888c0-42.831 34.747-77.576 77.576-77.576h465.455c42.828 0 77.576 34.745 77.576 77.576v568.888c0 42.828-34.748 77.576-77.576 77.576zM352.728 172.805c-21.495 0-38.788 17.293-38.788 38.788s17.293 38.788 38.788 38.788c21.495 0 38.788-17.293 38.788-38.788s-17.293-38.788-38.788-38.788zM352.728 327.956c-21.495 0-38.788 17.293-38.788 38.788s17.293 38.788 38.788 38.788c21.495 0 38.788-17.293 38.788-38.788s-17.293-38.788-38.788-38.788zM352.728 483.108c-21.495 0-38.788 17.293-38.788 38.788s17.293 38.788 38.788 38.788c21.495 0 38.788-17.293 38.788-38.788s-17.293-38.788-38.788-38.788zM507.879 793.41c21.495 0 38.788-17.293 38.788-38.788s-17.293-38.788-38.788-38.788c-21.495 0-38.788 17.293-38.788 38.788s17.293 38.788 38.788 38.788zM714.749 198.662c0-7.109-5.818-12.927-12.93-12.927h-232.727c-7.112 0-12.93 5.818-12.93 12.927v25.861c0 7.109 5.818 12.927 12.93 12.927h232.727c7.112 0 12.93-5.818 12.93-12.927v-25.861zM714.749 353.814c0-7.109-5.818-12.927-12.93-12.927h-232.727c-7.112 0-12.93 5.818-12.93 12.927v25.861c0 7.109 5.818 12.927 12.93 12.927h232.727c7.112 0 12.93-5.818 12.93-12.927v-25.861zM714.749 508.965c0-7.109-5.818-12.927-12.93-12.927h-232.727c-7.112 0-12.93 5.818-12.93 12.927v25.861c0 7.109 5.818 12.927 12.93 12.927h232.727c7.112 0 12.93-5.818 12.93-12.927v-25.861z" />
<glyph unicode="&#xe917;" glyph-name="chart-pie" d="M858.053 400.514h-324.847l216.34-216.34c8.27-8.266 21.876-8.94 30.379-0.931 52.978 49.912 89.42 117.198 100.113 192.835 1.834 12.952-8.912 24.436-21.985 24.436zM836.381 489.224c-11.28 163.539-141.964 294.222-305.503 305.502-12.483 0.862-23-9.665-23-22.177v-306.322h306.337c12.515 0 23.028 10.513 22.165 22.997zM442.169 400.514v324.846c0 13.074-11.484 23.82-24.424 21.986-163.14-23.054-287.84-165.577-282.036-336.386 5.969-175.421 157.008-319.274 332.513-317.068 68.996 0.863 132.748 23.093 185.167 60.276 10.814 7.664 11.528 23.586 2.15 32.963l-213.371 213.383z" />
<glyph unicode="&#xe918;" glyph-name="return" d="M845.88 539.521l-67.469 202.399c-8.667 26.133-33.066 43.733-60.664 43.733h-188.534v-256h318.265c-0.534 3.333-0.534 6.668-1.598 9.868zM486.546 785.653h-188.534c-27.6 0-52-17.6-60.667-43.733l-67.467-202.399c-1.067-3.199-1.067-6.535-1.6-9.868h318.267v256zM166.546 486.986v-320c0-35.334 28.667-64 64-64h554.667c35.334 0 64 28.666 64 64v320h-682.667z" />
<glyph unicode="&#xe919;" glyph-name="money" d="M743.924 856.064l-62.535-87.264h-320.199l-44.023 91.213c-4 8.293-3.451 18.055 1.44 25.843 4.89 7.795 13.449 12.527 22.649 12.527h204.688c7.677 0 14.985-3.298 20.058-9.056l19.704-22.344 15.528 20.702c5.049 6.735 12.977 10.697 21.392 10.697h99.564c10.026 0 19.211-5.605 23.785-14.522 4.586-8.924 3.789-19.649-2.051-27.797zM377.18 715.313h278.683v-32.273h-278.683v32.273zM678.763 629.552l98.354-141.979c40.721-58.781 60.68-130.365 56.205-201.576-4.512-71.689-33.652-139.953-82.047-192.223-41.050-44.333-94.137-76.046-153.529-91.704-29.715-7.835-60.518-11.813-91.564-11.813-2.42 0-4.838 0.028-7.249 0.078-105.832 2.098-200.433 52.863-259.553 139.283-37.649 55.023-56.308 119.625-53.973 186.802 2.328 66.709 25.109 130.036 65.89 183.113l99.895 130.020h327.571zM506.964 538.81c-14.77 0-26.745-11.971-26.745-26.745v-24.616c-42.102-7.633-74.141-44.544-74.141-88.815 0-44.274 32.039-81.181 74.141-88.815v-81.181h-47.396c-14.774 0-26.745-11.971-26.745-26.739 0-14.77 11.971-26.742 26.745-26.742h47.396v-15.928c0-14.774 11.975-26.745 26.745-26.745 14.764 0 26.745 11.971 26.745 26.745v16.607c44.653 5.402 79.379 43.517 79.379 89.603v6.097c0 46.096-34.726 84.204-79.379 89.606v74.296h52.634c14.774 0 26.745 11.971 26.745 26.736 0 14.77-11.971 26.745-26.745 26.745h-52.634v23.146c0 14.774-11.981 26.745-26.745 26.745zM480.219 431.656c-12.207-6.001-20.66-18.528-20.66-33.022 0-14.5 8.446-27.027 20.66-33.019v66.042zM559.6 265.443v6.094c0 16.499-10.913 30.493-25.892 35.157v-76.409c14.978 4.664 25.892 18.659 25.892 35.157z" />
<glyph unicode="&#xe91a;" glyph-name="copy" d="M277.283 789.606c-34.275 0-62.061-27.785-62.061-62.061v-434.424c0-34.276 27.785-62.061 62.061-62.061h57.798v395.487c0 34.276 27.785 62.062 62.061 62.062h252.506v38.936c0 34.275-27.785 62.061-62.061 62.061h-310.304zM439.578 650.887h310.303c34.275 0 62.061-27.785 62.061-62.061v-434.424c0-34.275-27.785-62.061-62.061-62.061h-310.303c-34.275 0-62.061 27.785-62.061 62.061v434.424c0 34.275 27.785 62.061 62.061 62.061z" />
<glyph unicode="&#xe91b;" glyph-name="line" d="M501.549 756.252c186.827 0 338.345-122.833 338.345-274.354 0-60.314-23.536-115.479-72.816-169.171-70.613-81.647-229.488-180.944-265.529-196.388-34.977-14.277-31.161 8.164-29.559 17.569 0.050 0.285 0.096 0.559 0.14 0.819 1.471 5.148 5.148 28.684 5.148 28.684 1.471 8.828 2.942 22.066-0.735 30.894-4.413 9.56-19.124 14.708-30.155 16.918-162.554 21.33-283.182 134.6-283.182 270.674 0 151.521 151.52 274.354 338.344 274.354zM413.733 542.881h23.536c3.677 0 6.619-2.942 6.619-6.619v-147.108c0-3.677-2.942-6.619-6.619-6.619h-23.536c-3.68 0-6.622 2.942-6.622 6.619v147.108c0 3.677 2.942 6.619 6.622 6.619zM577.024 542.881h23.536c3.677 0 6.619-2.942 7.354-6.619v-147.108c0-3.677-2.942-6.619-6.619-6.619h-26.481c-0.453 0-0.627 0.282-0.866 0.67-0.149 0.239-0.323 0.521-0.605 0.801l-67.668 91.207v-87.53c0-3.677-2.942-6.619-6.619-6.619h-23.54c-3.677 0-6.619 2.942-6.619 6.619v147.108c0 3.677 2.942 6.619 6.619 6.619h25.746l0.735-0.735c0.735 0 0.735-0.735 0.735-0.735l67.668-91.207v87.53c0 3.677 2.942 6.619 6.622 6.619zM379.895 419.312h-64.726v116.95c0 3.677-2.942 6.619-6.62 6.619h-23.537c-3.678 0-6.62-2.942-6.62-6.619v-147.108c0-1.471 0.735-3.677 2.207-4.413 1.471-1.471 2.942-1.471 4.413-1.471h94.883c3.677 0 6.622 2.942 6.622 6.619v23.536c0 2.942-2.945 5.886-6.622 5.886zM738.099 512.726c0-3.68-2.945-6.622-6.622-6.622h-63.991v-25.007h64.726c3.68 0 6.622-2.942 6.622-6.619v-23.54c0-3.677-2.942-6.619-6.622-6.619h-64.726v-25.007h64.726c3.68 0 6.622-2.942 6.622-6.619v-23.54c0-3.677-2.942-6.619-6.622-6.619h-94.884c-1.471 0-2.942 0.735-4.413 2.206-1.471 0.735-2.206 2.942-2.206 4.413v147.108c0 1.471 0 2.942 1.471 4.413 0.735 1.471 2.942 2.206 4.413 2.206h94.884c3.677 0 6.622-2.942 6.622-6.619v-23.536z" />
<glyph unicode="&#xe91c;" glyph-name="logo" d="M1011.2 576c-12.8 25.6-38.4 44.8-67.2 51.2-38.4 3.2-76.8-6.4-108.8-35.2-51.2-41.6-76.8-172.8-76.8-172.8-3.2-28.8-3.2-41.6 3.2-48 3.2-3.2 6.4-3.2 9.6-3.2 16 3.2 16 28.8 16 32 0 22.4 6.4 144 108.8 188.8 22.4 6.4 48 3.2 70.4-9.6 16-16 22.4-38.4 16-60.8-16-80-105.6-160-182.4-160s-128 86.4-150.4 121.6c-12.8 19.2-12.8 25.6-9.6 28.8 0 0 3.2 3.2 3.2 3.2v0 0c86.4 44.8 121.6 128 144 188.8v0c16 41.6 32 124.8 0 179.2-12.8 25.6-38.4 44.8-67.2 51.2-105.6 19.2-134.4-38.4-163.2-121.6s9.6-220.8 22.4-265.6c3.2-12.8 3.2-19.2 0-25.6-3.2-3.2-6.4-3.2-12.8-3.2v0c0 0-96-3.2-121.6 0-3.2 0-9.6 0-9.6 3.2s0 9.6 0 12.8l19.2 38.4c22.4 60.8 32 124.8 28.8 188.8-6.4 54.4-32 102.4-76.8 134.4-28.8 28.8-64 35.2-99.2 28.8-44.8-9.6-80-44.8-86.4-89.6-16-96 54.4-240 108.8-275.2s54.4-54.4 51.2-60.8v0c-22.4-41.6-51.2-80-86.4-112-32 131.2-76.8 214.4-131.2 246.4-35.2 19.2-76.8 22.4-115.2 6.4-19.2-6.4-35.2-22.4-38.4-41.6-16-44.8 6.4-112 54.4-182.4 38.4-67.2 115.2-99.2 192-86.4-12.8-35.2-32-70.4-54.4-102.4-44.8-70.4-92.8-150.4 0-224 25.6-22.4 60.8-38.4 96-41.6 41.6 6.4 83.2 25.6 112 54.4 25.6 25.6 57.6 44.8 92.8 54.4 64 16 92.8-9.6 131.2-41.6 22.4-19.2 51.2-38.4 76.8-51.2 35.2-19.2 76.8-19.2 112-3.2 28.8 12.8 48 38.4 57.6 67.2 6.4 38.4 3.2 76.8-9.6 112-16 41.6-41.6 76.8-73.6 108.8-6.4 6.4-16 6.4-22.4 0s-9.6-16-3.2-25.6c32-35.2 54.4-76.8 64-121.6 9.6-38.4-3.2-76.8-35.2-99.2-28.8-19.2-67.2-19.2-99.2-3.2-9.6 6.4-19.2 16-28.8 22.4-35.2 28.8-80 67.2-134.4 67.2v0c-70.4 0-92.8-12.8-115.2-32l-16-12.8c-44.8-38.4-115.2-99.2-182.4-38.4s-25.6 128 9.6 182.4l12.8 19.2c22.4 38.4 38.4 80 44.8 128 51.2 32 89.6 76.8 115.2 134.4 3.2 6.4 6.4 9.6 12.8 12.8 3.2 0 9.6 0 12.8-3.2v0c48-16 99.2-16 147.2 0 6.4 3.2 12.8 3.2 16 3.2 6.4-3.2 9.6-9.6 9.6-12.8v-3.2c92.8-163.2 176-156.8 256-131.2 64 22.4 115.2 70.4 140.8 134.4 22.4 25.6 25.6 64 9.6 96zM742.4 675.2l-3.2-6.4c-28.8-48-64-105.6-118.4-131.2-9.6 32-51.2 153.6-35.2 227.2v0c16 86.4 32 144 99.2 144 9.6 0 19.2 0 28.8-3.2 22.4-6.4 41.6-19.2 48-41.6 25.6-57.6 3.2-156.8-19.2-188.8zM448 729.6c0-51.2-9.6-140.8-48-195.2-38.4 25.6-70.4 57.6-96 96-9.6 16-73.6 147.2-41.6 217.6 9.6 22.4 28.8 35.2 51.2 41.6 9.6 3.2 19.2 3.2 28.8 3.2 19.2 0 38.4-6.4 51.2-19.2 41.6-35.2 57.6-112 54.4-144zM249.6 364.8c-3.2-3.2-12.8-6.4-22.4-3.2h-6.4c-51.2 9.6-118.4 19.2-172.8 144-19.2 48-19.2 83.2 0 99.2 12.8 9.6 25.6 12.8 41.6 12.8 9.6 0 16 0 25.6-3.2l9.6-3.2c28.8-12.8 105.6-51.2 131.2-211.2v0c-3.2-9.6 0-28.8-6.4-35.2zM499.2 240v-6.4c-12.8-16-22.4-25.6-28.8-25.6-3.2 0-9.6 3.2-9.6 6.4-3.2 6.4-3.2 12.8-3.2 19.2s0 16 3.2 22.4c3.2 9.6 6.4 16 12.8 25.6 3.2 6.4 9.6 16 16 22.4 3.2 6.4 9.6 9.6 12.8 12.8 0 0 3.2 0 3.2 0s3.2 0 3.2-3.2c0-3.2 0-3.2 0-6.4 0-9.6-3.2-22.4-9.6-32-6.4-12.8-16-25.6-28.8-35.2 0-3.2 0-3.2 0-6.4s0-6.4 3.2-9.6c0-3.2 3.2-3.2 6.4-3.2s3.2 0 3.2 0c3.2 0 3.2 3.2 6.4 3.2l9.6 16zM473.6 256c3.2 3.2 6.4 6.4 9.6 9.6s6.4 6.4 6.4 12.8 3.2 9.6 6.4 12.8c0 3.2 3.2 6.4 3.2 6.4s0 3.2-3.2 3.2h-3.2c-6.4-6.4-9.6-9.6-12.8-16-3.2-9.6-6.4-19.2-6.4-28.8v0zM540.8 240v-6.4c-3.2-6.4-9.6-12.8-16-16-3.2-3.2-9.6-6.4-12.8-6.4-6.4 0-9.6 3.2-9.6 6.4-3.2 6.4-3.2 9.6-3.2 16 0 3.2 0 3.2 0 6.4s0 3.2 0 6.4l3.2 6.4c9.6 12.8 16 19.2 22.4 19.2s6.4 0 6.4-3.2-3.2-6.4-3.2-9.6c-3.2-3.2-3.2-6.4-6.4-9.6s-6.4-6.4-9.6-9.6c0-3.2-3.2-3.2-3.2-6.4s0-3.2 3.2-6.4c3.2 0 3.2-3.2 6.4-3.2s6.4 0 9.6 3.2c3.2 6.4 9.6 9.6 12.8 12.8zM534.4 278.4c0 0-3.2 0-3.2 0s-3.2 3.2-3.2 3.2c0 3.2 0 6.4 3.2 9.6s3.2 3.2 6.4 3.2 3.2 0 3.2-3.2c0 0 3.2-3.2 3.2-3.2 0-3.2 0-6.4-3.2-9.6 0 3.2-3.2 0-6.4 0zM540.8 236.8v0l32 35.2c0 6.4 3.2 9.6 9.6 9.6 0 0 3.2 0 3.2 0v0c0 0 0-3.2 0-3.2 0-3.2 0-3.2 0-6.4s0-6.4 3.2-6.4c0-3.2 0-3.2 0-6.4s0-6.4-3.2-12.8c-3.2-3.2-3.2-6.4-6.4-9.6s-9.6-6.4-12.8-9.6h6.4c3.2 0 6.4 0 6.4 3.2 3.2 0 6.4 3.2 9.6 3.2l9.6 6.4v-6.4c-6.4-6.4-12.8-12.8-19.2-16-3.2-3.2-9.6-6.4-16-6.4s-12.8 3.2-16 6.4c-3.2 3.2-3.2 6.4-6.4 9.6s-3.2 6.4 0 9.6zM572.8 249.6v12.8c-3.2-3.2-12.8-12.8-22.4-25.6 3.2 0 6.4 0 6.4-3.2 3.2-3.2 3.2-3.2 6.4-6.4 3.2 0 6.4 3.2 9.6 6.4 0 6.4 0 9.6 0 16 0 0 0 0 0 0v0zM627.2 284.8h3.2c3.2 3.2 6.4 9.6 9.6 12.8s6.4 3.2 9.6 3.2c3.2 0 6.4 0 6.4-3.2s-3.2-3.2-3.2-6.4-3.2-6.4-6.4-6.4h9.6c-3.2-6.4-6.4-12.8-12.8-19.2h-12.8c-3.2-6.4-6.4-9.6-6.4-12.8-3.2-3.2-3.2-6.4-3.2-12.8 0-3.2-3.2-6.4-3.2-9.6s0-6.4 6.4-6.4c3.2 0 6.4 3.2 9.6 3.2 6.4 3.2 9.6 6.4 16 12.8v-6.4c-16-16-28.8-25.6-35.2-25.6-3.2 0-6.4 0-6.4 3.2-3.2 3.2-3.2 6.4-3.2 6.4 0 3.2 0 6.4 0 6.4 0 3.2 3.2 9.6 3.2 12.8 0 0-3.2 0-3.2-3.2h-3.2l-6.4-6.4v6.4c9.6 9.6 16 16 22.4 28.8h-6.4c-3.2 0-6.4 0-6.4 0h-3.2c0 3.2 0 6.4 3.2 9.6 0 3.2 3.2 6.4 6.4 6.4s3.2 3.2 6.4 3.2c3.2 6.4 6.4 6.4 9.6 3.2zM684.8 240v-6.4c-3.2-6.4-9.6-12.8-16-16-3.2-3.2-9.6-6.4-12.8-6.4-6.4 0-9.6 3.2-9.6 6.4-3.2 6.4-6.4 12.8-6.4 16s0 3.2 0 6.4 0 3.2 3.2 6.4c0 3.2 3.2 3.2 3.2 6.4 9.6 12.8 16 19.2 22.4 19.2s6.4 0 6.4-3.2 0-6.4-3.2-9.6c-3.2-3.2-3.2-6.4-6.4-9.6s-6.4-6.4-9.6-9.6c0-3.2-3.2-3.2-3.2-6.4s0-3.2 3.2-6.4c3.2 0 3.2-3.2 6.4-3.2s6.4 0 9.6 3.2c3.2 6.4 9.6 9.6 12.8 12.8zM678.4 278.4c0 0-3.2 0-3.2 0s-3.2 3.2-3.2 3.2c0 3.2 3.2 6.4 3.2 9.6s3.2 3.2 6.4 3.2c3.2 0 6.4-3.2 6.4-6.4 0 0 0 0 0 0 0-3.2 0-6.4-3.2-9.6 0 3.2-3.2 0-6.4 0zM736 240v-6.4l-16-16c-3.2-3.2-6.4-6.4-12.8-6.4-3.2-3.2-6.4-3.2-9.6-3.2s-6.4 0-9.6 3.2c-3.2 3.2-6.4 6.4-6.4 9.6-3.2 3.2-3.2 9.6-3.2 12.8s0 6.4 3.2 9.6c3.2 3.2 6.4 9.6 9.6 12.8 6.4 6.4 9.6 9.6 16 12.8 19.2 12.8 19.2 9.6 22.4 9.6s0-9.6 0-12.8c-9.6-9.6-22.4-16-32-25.6-3.2 0-3.2-3.2-6.4-6.4 0 0-3.2-3.2-3.2-6.4s0-6.4 3.2-9.6c9.6 6.4 12.8 6.4 16 6.4s9.6 3.2 12.8 3.2c6.4 3.2 12.8 6.4 16 12.8zM403.2 249.6c-3.2-6.4-3.2-16 0-25.6 0-3.2 3.2-6.4 6.4-9.6s6.4-3.2 9.6-3.2 12.8 3.2 19.2 12.8c3.2 0 6.4 0 9.6 0 3.2 3.2 6.4 3.2 9.6 6.4v6.4l-3.2-3.2h-9.6c3.2 3.2 3.2 6.4 6.4 12.8 0 3.2 3.2 6.4 3.2 9.6s0 3.2 0 6.4c0 0-3.2 3.2-3.2 3.2s3.2 3.2 3.2 3.2c0 3.2 0 3.2-3.2 3.2s-3.2 0-6.4 0-9.6 0-12.8-3.2c-3.2-3.2-9.6-6.4-12.8-9.6-9.6 0-12.8-6.4-16-9.6zM425.6 256l12.8 6.4c-3.2-3.2-3.2-9.6-6.4-12.8 0-3.2-3.2-6.4-3.2-12.8 0-3.2 0-6.4 0-6.4-3.2-3.2-6.4-6.4-12.8-6.4s-6.4 3.2-6.4 6.4c0 3.2 0 6.4 3.2 9.6 0 3.2 3.2 6.4 3.2 6.4 3.2 3.2 6.4 6.4 9.6 9.6v0zM550.4 195.2c-57.6-35.2-144-48-166.4-32s-12.8 51.2 0 76.8c3.2 6.4 12.8 12.8 22.4 12.8h9.6l19.2 16c-6.4 0-32 0-41.6 0 3.2 6.4 6.4 12.8 6.4 16l6.4 12.8c3.2 3.2 3.2 6.4 6.4 9.6v3.2c0 0 0 3.2 3.2 3.2 0 3.2 0 3.2 0 6.4s0 3.2-3.2 3.2-3.2 0-3.2-3.2l-6.4-9.6c-3.2-3.2-6.4-9.6-9.6-19.2s-9.6-16-16-28.8l-12.8-3.2-9.6-3.2c9.6 12.8 12.8 22.4 16 25.6s6.4 9.6 6.4 16c3.2 3.2 3.2 9.6 3.2 12.8 0 6.4-3.2 12.8-6.4 12.8s-6.4 0-12.8 0-16-3.2-25.6-6.4c-9.6-3.2-16-6.4-25.6-12.8-6.4-3.2-12.8-6.4-19.2-12.8 0-3.2-3.2-6.4-6.4-9.6 0-3.2-3.2-6.4-3.2-9.6s0-6.4 0-9.6c0-3.2 0-3.2 3.2-6.4 0 0 3.2 0 3.2 0 3.2 0 3.2 0 6.4 3.2 0 0 12.8 16 12.8 16s3.2 3.2 9.6 6.4l19.2 12.8 12.8 6.4 9.6 3.2h3.2c0 0 3.2 0 3.2 0s0-3.2 3.2-3.2c0-6.4-3.2-12.8-6.4-16-6.4-9.6-12.8-19.2-25.6-35.2l-22.4-9.6c-3.2 0-3.2 0-3.2-3.2s-3.2-3.2-3.2-6.4c0-3.2 0-3.2 0-6.4s3.2-3.2 3.2-3.2 6.4 0 6.4 0h6.4c0-3.2-3.2-6.4-6.4-9.6s-3.2-6.4-3.2-9.6c0 0 0-3.2 0-3.2v-3.2c0 0 0 0 0-3.2v0c0 0 3.2-3.2 3.2 0 0 0 3.2 0 3.2 3.2l3.2 6.4c0 3.2 3.2 6.4 6.4 12.8s3.2 3.2 3.2 6.4c3.2 3.2 6.4 6.4 9.6 9.6 9.6 6.4 19.2 9.6 28.8 12.8 0 0-3.2-6.4-6.4-9.6v0c-3.2-9.6-6.4-16-6.4-25.6-6.4-32-3.2-70.4 70.4-73.6 51.2 3.2 99.2 16 144 38.4 9.6 3.2 22.4 3.2 22.4 19.2s-16 19.2-44.8 3.2z" />
</font>
</defs>
</svg>
